Ralph el Demoledor (2012) [BDRip 1080p][Español Latino 5.1/Ingles DTS]

Tema de Ralph el Demoledor (2012) [BDRip 1080p][Español Latino 5.1/Ingles DTS] - Ultimatez en el foro de Películas en Alta Definición.

Tema:  Ralph el Demoledor (2012) [BDRip 1080p][Español Latino 5.1/Ingles DTS]  (Leído 134 veces)

0 Usuarios y 1 Visitante están viendo este tema.

Hora febrero 16, 2013, 08:51:16 pm
  • *
  • Mensajes: 2652
  • Temas: 2668
  • Coins 22608 Coins
  • Sexo: Masculino
  • pe
  • Panel de Gracias:
    -Dados: 1
    -Recibidos: 472
  • Actividad Mensual:
    1%
    • Con Nosotros Desde: 02/04/2010
      AosAosAosAos
    • Desconectado
    • Ver Perfil
    • SeriesCity




Ralph el Demoledor anhela ser amado y respetado como suele pasar con, Felix el Reparador, el chico bueno del videojuego al que pertenece. El problema es que nadie quiere a los villanos y por eso Ralph sale de su juego y se aventura en un moderno reto que lo podría coronar como el héroe que quiere ser. Sin embargo, todo sale mal para Ralph y, aunque consigue ganar su valiosa medalla, provoca un accidente que podría terminar con todos los juegos de video. Con la ayuda de un curiosa pequeñita, Ralph tendrá que arreglar todos los problemas antes de que sea demasiado tarde.



TÍTULO ORIGINAL:   Wreck-It Ralph
OTROS TÍTULOS: ¡Rompe Ralph! / Ralph el Demoledor
AÑO: 2012
DURACIÓN: 101 min.
PAÍS: USA
DIRECTOR:   Rich Moore
GUIÓN:   Phil Johnston
MÚSICA:   Henry Jackman
FOTOGRAFÍA:   Animation
REPARTO:   Animation
PRODUCTORA:   Walt Disney Animation Studios
PREMIOS   2012: Oscar: Nominada a Mejor película de animación
2012: 5 Premios Annie, incluyendo Mejor película. 10 nominaciones
2012: Critics Choice Awards: Mejor película de animación
2012: Globos de Oro: Nominada a Mejor película de animación
2012: Satellite Awards: Nominado a Mejor largometraje de animación
2012: National Board of Review (NBR): Mejor largometraje de animación
2012: Producers Guild of America (PGA): Mejor película de animación
GÉNERO:   Animación. Fantástico. Comedia | Videojuego. 3-D
FECHA DE ESTRENO MÉXICO:   2 de noviembre de 2012
FECHA DE ESTRENO USA:   2 de noviembre de 2012
FECHA DE ESTRENO ESPAÑA:   25 de diciembre de 2012



Código: [Seleccionar]
General
Unique ID                                : 214812632503049896465184904230049127015 (0xA19B687BAB113C64A60D40D6CB2F9A67)
Complete name                            : ralph el demoledor BDRip 1080p Latino.mkv
Format                                   : Matroska
Format version                           : Version 2
File size                                : 8.10 GiB
Duration                                 : 1h 41mn
Overall bit rate                         : 11.5 Mbps
Movie name                               : wWw.Chamako.Net - Ralph el Demoledor 2012 BDRip 1080p Latino
Encoded date                             : UTC 2013-02-16 23:08:40
Writing application                      : mkvmerge v3.4.0 ('Rapunzel') built on May 15 2010 09:38:20
Writing library                          : libebml v0.8.0 + libmatroska v0.9.0

Video
ID                                       : 1
Format                                   : AVC
Format/Info                              : Advanced Video Codec
Format profile                           : [email protected]
Format settings, CABAC                   : Yes
Format settings, ReFrames                : 5 frames
Codec ID                                 : V_MPEG4/ISO/AVC
Duration                                 : 1h 41mn
Bit rate                                 : 9 304 Kbps
Width                                    : 1 920 pixels
Height                                   : 808 pixels
Display aspect ratio                     : 2.40:1
Frame rate mode                          : Constant
Frame rate                               : 23.976 fps
Color space                              : YUV
Chroma subsampling                       : 4:2:0
Bit depth                                : 8 bits
Scan type                                : Progressive
Bits/(Pixel*Frame)                       : 0.250
Stream size                              : 6.42 GiB (79%)
Title                                    : wWw.Chamako.Net - Ralph el Demoledor 2012
Writing library                          : x264 core 129 r2245 bc13772
Encoding settings                        : cabac=1 / ref=5 / deblock=1:0:0 / analyse=0x3:0x133 / me=umh / subme=7 / psy=1 / psy_rd=1.00:0.00 / mixed_ref=1 / me_range=16 / chroma_me=1 / trellis=1 / 8x8dct=1 / cqm=0 / deadzone=21,11 / fast_pskip=0 / chroma_qp_offset=-2 / threads=12 / lookahead_threads=2 / sliced_threads=0 / nr=0 / decimate=1 / interlaced=0 / bluray_compat=0 / constrained_intra=0 / bframes=3 / b_pyramid=2 / b_adapt=1 / b_bias=0 / direct=1 / weightb=1 / open_gop=0 / weightp=2 / keyint=250 / keyint_min=23 / scenecut=40 / intra_refresh=0 / rc_lookahead=40 / rc=2pass / mbtree=1 / bitrate=9304 / ratetol=1.0 / qcomp=0.60 / qpmin=0 / qpmax=69 / qpstep=4 / cplxblur=20.0 / qblur=0.5 / ip_ratio=1.40 / aq=1:1.00
Language                                 : English
Default                                  : No
Forced                                   : No

Audio #1
ID                                       : 2
Format                                   : AC-3
Format/Info                              : Audio Coding 3
Mode extension                           : CM (complete main)
Format settings, Endianness              : Big
Codec ID                                 : A_AC3
Duration                                 : 1h 41mn
Bit rate mode                            : Constant
Bit rate                                 : 640 Kbps
Channel(s)                               : 6 channels
Channel positions                        : Front: L C R, Side: L R, LFE
Sampling rate                            : 48.0 KHz
Bit depth                                : 16 bits
Compression mode                         : Lossy
Stream size                              : 463 MiB (6%)
Title                                    : wWw.Chamako.Net - Latino 5.1
Language                                 : Spanish
Default                                  : Yes
Forced                                   : Yes

Audio #2
ID                                       : 3
Format                                   : DTS
Format/Info                              : Digital Theater Systems
Mode                                     : 16
Format settings, Endianness              : Big
Codec ID                                 : A_DTS
Duration                                 : 1h 41mn
Bit rate mode                            : Constant
Bit rate                                 : 1 509 Kbps
Channel(s)                               : 6 channels
Channel positions                        : Front: L C R, Side: L R, LFE
Sampling rate                            : 48.0 KHz
Bit depth                                : 24 bits
Compression mode                         : Lossy
Delay relative to video                  : 11ms
Stream size                              : 1.07 GiB (13%)
Title                                    : wWw.Chamako.Net - English DTS
Language                                 : English
Default                                  : No
Forced                                   : No

Text #1
ID                                       : 4
Format                                   : UTF-8
Codec ID                                 : S_TEXT/UTF8
Codec ID/Info                            : UTF-8 Plain Text
Title                                    : Spanish
Language                                 : Spanish
Default                                  : Yes
Forced                                   : Yes

Text #2
ID                                       : 5
Format                                   : UTF-8
Codec ID                                 : S_TEXT/UTF8
Codec ID/Info                            : UTF-8 Plain Text
Title                                    : English
Language                                 : English
Default                                  : No
Forced                                   : No

Text #3
ID                                       : 6
Format                                   : UTF-8
Codec ID                                 : S_TEXT/UTF8
Codec ID/Info                            : UTF-8 Plain Text
Title                                    : English
Language                                 : English
Default                                  : No
Forced                                   : No

Menu
00:00:00.000                             : en:00:00:00.000
00:07:12.140                             : en:00:07:12.140
00:16:34.910                             : en:00:16:34.910
00:27:07.501                             : en:00:27:07.501
00:37:25.952                             : en:00:37:25.952
00:44:46.684                             : en:00:44:46.684
00:48:45.130                             : en:00:48:45.130
00:51:36.009                             : en:00:51:36.009
00:58:56.032                             : en:00:58:56.032
01:09:07.893                             : en:01:09:07.893
01:13:39.623                             : en:01:13:39.623
01:15:56.802                             : en:01:15:56.802
01:18:52.978                             : en:01:18:52.978
01:21:53.742                             : en:01:21:53.742
01:27:25.365                             : en:01:27:25.365
01:33:10.543                             : en:01:33:10.543









ARCHIVO DE RECUPERACIÓN + 1 SFV DE COMPROBACIÓN DE RAR
Añadir el link al Jdownloader o MiPony, y empieza a descargar del host que mas te agrade
SERVIDORES DISPONIBLES

Ralph el Demoledor (2012) [BDRip 1080p][Español Latino 5.1/Ingles DTS]

CONTRASEÑA: chamako (todo minusculas)

Si Algun link cae solo enviame un MP con el link del post y lo resubiré


Descarga en MEGA 1 Link:





Solo Usuarios Registrados pueden comentar, Ingresa o Registrate es Gratis!
 

  Asunto / Iniciado por Respuestas / Vistas Último mensaje
xx
Ralph el Demoledor (2012) [3D SBS][BDRip 1080p][Español Latino 5.1/Ingles DTS]

Iniciado por Chamako

0 Respuestas
64 Vistas
Último mensaje febrero 17, 2013, 04:59:41 am
por Chamako
xx
Ralph el Demoledor, BDRip-1080p, Español Latino-Inglés, 2012

Iniciado por andino2

0 Respuestas
62 Vistas
Último mensaje febrero 19, 2013, 08:51:52 pm
por andino2
xx
Ralph El Demoledor [2012][BDRip][720p][LATiNO/INGLES]

Iniciado por ranzio

0 Respuestas
55 Vistas
Último mensaje febrero 19, 2013, 04:37:39 pm
por ranzio

Visitantes encuentran esta pagina buscando:




Rangos
Atención A las personas sorprendidas insultando en el Chat serán baneados del Chat y del foro. Atención

r