Monster High - Scaris: City of Frights [2013][DVD-RIP][ESPAÑOL][ANIMACION][VH]

Tema de Monster High - Scaris: City of Frights [2013][DVD-RIP][ESPAÑOL][ANIMACION][VH] - Ultimatez en el foro de Infantiles.

Tema:  Monster High - Scaris: City of Frights [2013][DVD-RIP][ESPAÑOL][ANIMACION][VH]  (Leído 428 veces)

0 Usuarios y 1 Visitante están viendo este tema.

Hora abril 18, 2013, 12:49:50 pm
  • *****
  • Mensajes: 853
  • Temas: 859
  • Coins 8557 Coins
  • Sexo: Masculino
  • Panel de Gracias:
    -Dados: 5
    -Recibidos: 85
  • Actividad Mensual:
    0%
    • Con Nosotros Desde: 27/12/2012
      AosAos
    • Desconectado
    • Ver Perfil










CALIDAD: DVD RIP
IDIOMA: Español AC-3  5.1
TAMAÑO: 760 MB
CONTENEDOR: AVI


MediaInfo:


Spoiler:

General
Complete name                            : Monster2013.avi
Format                                   : AVI
Format/Info                              : Audio Video Interleave
File size                                : 761 MiB
Duration                                 : 58mn 0s
Overall bit rate                         : 1 833 Kbps
Writing application                      : Lavf52.78.4

Video
ID                                       : 0
Format                                   : MPEG-4 Visual
Format profile                           : Advanced Simple@L5
Format settings, BVOP                    : 2
Format settings, QPel                    : No
Format settings, GMC                     : No warppoints
Format settings, Matrix                  : Default (H.263)
Muxing mode                              : Packed bitstream
Codec ID                                 : DX50
Codec ID/Hint                            : DivX 5
Duration                                 : 58mn 0s
Bit rate                                 : 1 438 Kbps
Width                                    : 720 pixels
Height                                   : 402 pixels
Display aspect ratio                     : 16:9
Frame rate                               : 25.000 fps
Color space                              : YUV
Chroma subsampling                       : 4:2:0
Bit depth                                : 8 bits
Scan type                                : Progressive
Compression mode                         : Lossy
Bits/(Pixel*Frame)                       : 0.199
Stream size                              : 597 MiB (78%)
Writing library                          : XviD 1.2.1 (UTC 2008-12-04)

Audio
ID                                       : 1
Format                                   : AC-3
Format/Info                              : Audio Coding 3
Mode extension                           : CM (complete main)
Format settings, Endianness              : Big
Codec ID                                 : 2000
Duration                                 : 58mn 0s
Bit rate mode                            : Constant
Bit rate                                 : 384 Kbps
Channel(s)                               : 6 channels
Channel positions                        : Front: L C R, Side: L R, LFE
Sampling rate                            : 48.0 KHz
Bit depth                                : 16 bits
Compression mode                         : Lossy
Stream size                              : 159 MiB (21%)
Alignment                                : Aligned on interleaves
Interleave, duration                     : 32 ms (0.80 video frame)
Interleave, preload duration             : 32 ms













http://bb0d5053.qqc.co






Descarga en MEGA 1 Link:




Los siguiente Usuarios, dieron Gracias a este post:



Solo Usuarios Registrados pueden comentar, Ingresa o Registrate es Gratis!
 

  Asunto / Iniciado por Respuestas / Vistas Último mensaje
xx
Monster High Scaris: City of Frights [2013][DVDR][Animacion][Latino/Ingles]

Iniciado por argondog

0 Respuestas
224 Vistas
Último mensaje mayo 09, 2013, 03:33:36 pm
por argondog
smiley
Monster High Scaris: City of Frights (2013) DVDR NTSC R4 [Español Latino 5.1]

Iniciado por El.Ultimo.Anunnaki

0 Respuestas
266 Vistas
Último mensaje mayo 05, 2013, 06:55:11 pm
por El.Ultimo.Anunnaki
xx
Monster High Scaris: City of Frights, DVD, NTSC, Esp.Lat-Ing, 2013

Iniciado por andino2

0 Respuestas
159 Vistas
Último mensaje mayo 05, 2013, 08:57:01 pm
por andino2

Visitantes encuentran esta pagina buscando:




Rangos
Atención A las personas sorprendidas insultando en el Chat serán baneados del Chat y del foro. Atención

r